HD-AREA wünscht Euch eine besinnliche Weihnachtszeit ;)

DNS SERVER AENDERNum der staatlichen Zensur zu umgehen. Sollten wir von eurem Provider geseprrt werden, nutzt den TOR BROWSER oder ändert euren DNS SERVER.

Filmwünsche können bei uns im Forum abgegeben werden

Wir Speichern Nicht




 
 
 
Top Releases
Earthquake.Die.Welt.Am.Abgru...
Earthquake.Die.Welt.Am.Abgru...
Earthquake.Die.Welt.Am.Abgru...
Earthquake.Die.Welt.Am.Abgru...
Paradox.Kill.Zone.Bangkok.20...
I.Tonya.2017.German.AC3.1080...
Deine.Juliet.2018.German.DL....
Ideal.Home.2018.German.DL.10...
Ideal.Home.Ein.Vater.kommt.s...
Deine.Juliet.2018.German.DTS...

Cinedubs
Venom.German.DL.AC3.Dubbed.1...
Venom.2018.German.AC3D.5.1.D...
Venom.2018.German.AC3D.5.1.D...
Das.krumme.Haus.2017.GERMAN....
Das.krumme.Haus.2017.GERMAN....
I.Still.See.You.Sie.lassen.d...
I.Still.See.You.Sie.lassen.d...
Braven.2018.German.AC3D.DL.1...
Braven.2018.German.AC3D.DL.7...
Smallfoot.Ein.eisigartiges.A...

Neuerscheinungen 2017-18
The.Scorpion.King.4.Der.verl...
Gotti.A.Real.American.Godfat...
Gotti.A.Real.American.Godfat...
Fellinis.Stadt.der.Frauen.La...
Bad.Moms.2.2017.German.AC3.D...
Devils.Gate.Pforte.zur.Hoell...
Gotti.A.Real.American.Godfat...
Untraceable.2008.German.DL.1...
Gotti.A.Real.American.Godfat...
Gotti.A.Real.American.Godfat...

XXX
1000Facials.18.12.03.Lexi.Fo...
AussieFellatioQueens.18.12.0...
BlowBangGirls.18.11.30.Adora...
AllOver30.18.12.03.Lauren.Ph...
BigWetButts.18.12.03.Blanche...
BoxTruckSex.18.12.02.Victori...
AuntJudys.18.12.03.Spying.On...
CherryPimps.18.12.01.Ana.Fox...
BlackIsBetter.18.12.02.Alexa...
BigGulpGirls.18.11.30.Lauren...
AdultAuditions.E265.Sabrina....
BabyGotBoobs.18.12.01.Tiffan...
AuntJudys.18.11.30.Auntie.Ja...
ATKHairy.18.11.30.Bella.Dahl...
Blacked.18.12.01.Riley.Reid....
BackroomCastingCouch.18.12.0...
AssholeFever.18.12.01.Liza.B...
AllGirlMassage.18.12.03.Abel...
Bang.RealTeens.18.12.03.Khlo...
BrazzersExxtra.18.12.02.Madi...

3D
The.Art.of.Flight.3D.2011.Ge...
The.End.Of.The.World.3D.2010...
The.First.Avenger.Civil.War....
Die.Unglaublichen.2.2018.3D....
Skyscraper.3D.2018.MULTi.COM...
Ant-Man.And.The.Wasp.3D.2018...
Ant.Man.and.the.Wasp.3D.2018...
Die.Unglaublichen.2.3D.2018....
Die.Unglaublichen.2.2018.3D....
Die.Unglaublichen.2.2018.3D....
Sharknado.6.The.Last.One.3D....
Deep.Kleine.Helden.der.Tiefs...
Deep.3D.2017.MULTI.COMPLETE....
Detective.Dee.und.die.Legend...
Detective.Dee.und.die.Legend...

Old_Stuff
Akte.X.S04.German.DTS.DL.108...
Akte.X.S03.German.DTS.DL.108...
Dunkirk.1958.COMPLETE.BLURAY...
Das.Wunder.von.Manhattan.199...
The.Amazing.Spiderman.2.Rise...
Rise.of.the.Predator.2014.Ge...
Detective.Dee.und.das.Geheim...
Detective.Dee.Und.Der.Fluch....
Ghost.Rider.Spirit.of.Vengea...
Species.IV.Das.Erwachen.2007...
Species.IV.Das.Erwachen.2007...
Hotel.Transsilvanien.2012.Ge...
The.Dead.2010.German.DL.1080...
The.Dead.2.India.2013.German...
Britney.Spears.Live.The.Femm...

Filme
Swedish.Dicks.S02.German.DD2...
Terminator.Salvation.Theatri...
Supergirl.S03D01-4.MULTi.COM...
Scandal.S06.COMPLETE.German....
Scandal.S06.COMPLETE.German....
Arrow.S06.German.DL.1080p.Bl...
Arrow.S06.German.DL.720p.Blu...
The.Good.Doctor.S02.German.D...
The.Good.Doctor.S02.German.D...
Bad.Santa.EXTENDED.2003.Germ...
Aladdin.1992.German.AC3.DL.1...
DCs.Legends.of.Tomorrow.S03D...
Boar.2017.German.DL.1080p.Bl...
Zwei.vom.alten.Schlag.2013.G...
Ouija.Seance.The.Final.Game....
Arrow.S06D01-4.MULTi.COMPLET...
Barry.Seal.Only.in.America.2...
Barry.Seal.Only.in.America.2...
4.Blocks.S02D01+2.GERMAN.COM...
The.Raid.2011.German.1080p.B...
Christiane.F.Wir.Kinder.vom....
Frankensteins.Sohn.1939.Germ...
June.2015.German.DL.1080p.Bl...
So.High.2001.German.AC3D.DL....

 
 
Swedish.Dicks.S02.German.DD20.Dubbed.DL.1080p.AmazonHD.h264-GDR

Jahr: 2018
Genre: Komödie | Krimi
Sprache: Deutsch AC3 | Englisch AC3
Laufzeit: 23min je Folge
Bitrate: 9900 Kbps
Format: MKV
Größe: 1,7 GB je Folge
Release:

Beschreibung:

Ingmar (Peter Stormare), Schwede, ehemaliger Stuntman und ansässig in Los Angeles, versucht eine (unlizenzierte) Privatdetektei zu eröffnen. Hilfe bekommt er dabei von Axel (Johan Glans), einem recht erfolglosen DJ. Zusammen versuchen die beiden Lebenskünstler, einige seltsame Fälle in der Stadt zu lösen.

 

enthaltene Folgen:

Swedish.Dicks.S02E01.Der.diebische.Zorro.German.DD20.Dubbed.DL.1080p.AmazonHD.h264-GDR

Swedish.Dicks.S02E02.Axel.und.Eve.German.DD20.Dubbed.DL.1080p.AmazonHD.h264-GDR

Swedish.Dicks.S02E03.Die.neue.Identitaet.German.DD20.Dubbed.DL.1080p.AmazonHD.h264-GDR NEU

Swedish.Dicks.S02E04.Dave.und.die.Dating.App.German.DD20.Dubbed.DL.1080p.AmazonHD.h264-GDR NEU



General
Complete name                            : Swedish.Dicks.S02E01.Der.diebische.Zorro.German.DD20.Dubbed.DL.1080p.AmazonHD.h264-GDR.mkv
Format                                   : Matroska
Format version                           : Version 4 / Version 2
File size                                : 1.73 GiB
Duration                                 : 23mn 1s
Overall bit rate mode                    : Variable
Overall bit rate                         : 10.7 Mbps
Encoded date                             : UTC 2018-11-29 02:22:40
Writing application                      : mkvmerge v23.0.0 ('The Bride Said No') 64-bit
Writing library                          : libebml v1.3.6 + libmatroska v1.4.9
DURATION                                 : 00:23:01.120000000
NUMBER_OF_FRAMES                         : 43160
NUMBER_OF_BYTES                          : 66293760
_STATISTICS_WRITING_APP                  : mkvmerge v23.0.0 ('The Bride Said No') 64-bit
_STATISTICS_WRITING_DATE_UTC             : 2018-11-29 02:22:40
_STATISTICS_TAGS                         : BPS DURATION NUMBER_OF_FRAMES NUMBER_OF_BYTES

Video
ID                                       : 1
Format                                   : AVC
Format/Info                              : Advanced Video Codec
Format profile                           : High@L4.0
Format settings, CABAC                   : Yes
Format settings, ReFrames                : 4 frames
Codec ID                                 : V_MPEG4/ISO/AVC
Duration                                 : 23mn 1s
Bit rate mode                            : Variable
Bit rate                                 : 9 940 Kbps
Maximum bit rate                         : 15.0 Mbps
Width                                    : 1 920 pixels
Height                                   : 1 080 pixels
Display aspect ratio                     : 16:9
Frame rate mode                          : Constant
Frame rate                               : 25.000 fps
Color space                              : YUV
Chroma subsampling                       : 4:2:0
Bit depth                                : 8 bits
Scan type                                : Progressive
Bits/(Pixel*Frame)                       : 0.192
Stream size                              : 1.60 GiB (93%)
Language                                 : German
Default                                  : Yes
Forced                                   : No
Color primaries                          : BT.709
Transfer characteristics                 : BT.709
Matrix coefficients                      : BT.709

Audio #1
ID                                       : 2
Format                                   : AC-3
Format/Info                              : Audio Coding 3
Mode extension                           : CM (complete main)
Format settings, Endianness              : Big
Codec ID                                 : A_AC3
Duration                                 : 23mn 1s
Bit rate mode                            : Constant
Bit rate                                 : 192 Kbps
Channel(s)                               : 2 channels
Channel positions                        : Front: L R
Sampling rate                            : 48.0 KHz
Bit depth                                : 16 bits
Compression mode                         : Lossy
Stream size                              : 31.6 MiB (2%)
Language                                 : German
Default                                  : Yes
Forced                                   : No

Audio #2
ID                                       : 3
Format                                   : AC-3
Format/Info                              : Audio Coding 3
Mode extension                           : CM (complete main)
Format settings, Endianness              : Big
Codec ID                                 : A_AC3
Duration                                 : 23mn 1s
Bit rate mode                            : Constant
Bit rate                                 : 384 Kbps
Channel(s)                               : 6 channels
Channel positions                        : Front: L C R, Side: L R, LFE
Sampling rate                            : 48.0 KHz
Bit depth                                : 16 bits
Compression mode                         : Lossy
Stream size                              : 63.2 MiB (4%)
Language                                 : English
Default                                  : No
Forced                                   : No



Download:
Share-Online.biz Share-Online.bizShare-Online.bizShare-Online.biz | Rapidgator.net Rapidgator.netRapidgator.netRapidgator.net
 

Kommentare